  0
SECTION
  2
HEADER
  9
$ACADVER
  1
AC1018
  9
$ACADMAINTVER
 70
   104
  9
$DWGCODEPAGE
  3
ANSI_1250
  9
$LASTSAVEDBY
  1
Mac
  9
$INSBASE
 10
0.0
 20
0.0
 30
0.0
  9
$EXTMIN
 10
997.9541048700312
 20
1701.583094135497
 30
0.0
  9
$EXTMAX
 10
1132.982324498378
 20
1789.025598319728
 30
0.0
  9
$LIMMIN
 10
0.0
 20
0.0
  9
$LIMMAX
 10
420.0
 20
297.0
  9
$ORTHOMODE
 70
     0
  9
$REGENMODE
 70
     1
  9
$FILLMODE
 70
     1
  9
$QTEXTMODE
 70
     0
  9
$MIRRTEXT
 70
     0
  9
$LTSCALE
 40
1.0
  9
$ATTMODE
 70
     1
  9
$TEXTSIZE
 40
2.5
  9
$TRACEWID
 40
1.0
  9
$TEXTSTYLE
  7
Standard
  9
$CLAYER
  8
0
  9
$CELTYPE
  6
ByLayer
  9
$CECOLOR
 62
   256
  9
$CELTSCALE
 40
1.0
  9
$DISPSILH
 70
     0
  9
$DIMSCALE
 40
1.0
  9
$DIMASZ
 40
2.5
  9
$DIMEXO
 40
0.625
  9
$DIMDLI
 40
3.75
  9
$DIMRND
 40
0.0
  9
$DIMDLE
 40
0.0
  9
$DIMEXE
 40
1.25
  9
$DIMTP
 40
0.0
  9
$DIMTM
 40
0.0
  9
$DIMTXT
 40
2.5
  9
$DIMCEN
 40
2.5
  9
$DIMTSZ
 40
0.0
  9
$DIMTOL
 70
     0
  9
$DIMLIM
 70
     0
  9
$DIMTIH
 70
     0
  9
$DIMTOH
 70
     0
  9
$DIMSE1
 70
     0
  9
$DIMSE2
 70
     0
  9
$DIMTAD
 70
     1
  9
$DIMZIN
 70
     8
  9
$DIMBLK
  1

  9
$DIMASO
 70
     1
  9
$DIMSHO
 70
     1
  9
$DIMPOST
  1

  9
$DIMAPOST
  1

  9
$DIMALT
 70
     0
  9
$DIMALTD
 70
     3
  9
$DIMALTF
 40
0.03937007874016
  9
$DIMLFAC
 40
1.0
  9
$DIMTOFL
 70
     1
  9
$DIMTVP
 40
0.0
  9
$DIMTIX
 70
     0
  9
$DIMSOXD
 70
     0
  9
$DIMSAH
 70
     0
  9
$DIMBLK1
  1

  9
$DIMBLK2
  1

  9
$DIMSTYLE
  2
ISO-25
  9
$DIMCLRD
 70
     0
  9
$DIMCLRE
 70
     0
  9
$DIMCLRT
 70
     0
  9
$DIMTFAC
 40
1.0
  9
$DIMGAP
 40
0.625
  9
$DIMJUST
 70
     0
  9
$DIMSD1
 70
     0
  9
$DIMSD2
 70
     0
  9
$DIMTOLJ
 70
     0
  9
$DIMTZIN
 70
     8
  9
$DIMALTZ
 70
     0
  9
$DIMALTTZ
 70
     0
  9
$DIMUPT
 70
     0
  9
$DIMDEC
 70
     2
  9
$DIMTDEC
 70
     2
  9
$DIMALTU
 70
     2
  9
$DIMALTTD
 70
     3
  9
$DIMTXSTY
  7
Standard
  9
$DIMAUNIT
 70
     0
  9
$DIMADEC
 70
     0
  9
$DIMALTRND
 40
0.0
  9
$DIMAZIN
 70
     0
  9
$DIMDSEP
 70
    44
  9
$DIMATFIT
 70
     3
  9
$DIMFRAC
 70
     0
  9
$DIMLDRBLK
  1

  9
$DIMLUNIT
 70
     2
  9
$DIMLWD
 70
    -2
  9
$DIMLWE
 70
    -2
  9
$DIMTMOVE
 70
     0
  9
$LUNITS
 70
     2
  9
$LUPREC
 70
     4
  9
$SKETCHINC
 40
1.0
  9
$FILLETRAD
 40
0.0
  9
$AUNITS
 70
     0
  9
$AUPREC
 70
     0
  9
$MENU
  1
.
  9
$ELEVATION
 40
0.0
  9
$PELEVATION
 40
0.0
  9
$THICKNESS
 40
0.0
  9
$LIMCHECK
 70
     0
  9
$CHAMFERA
 40
0.0
  9
$CHAMFERB
 40
0.0
  9
$CHAMFERC
 40
0.0
  9
$CHAMFERD
 40
0.0
  9
$SKPOLY
 70
     0
  9
$TDCREATE
 40
2458554.928557975
  9
$TDUCREATE
 40
2458554.886891308
  9
$TDUPDATE
 40
2458572.406292141
  9
$TDUUPDATE
 40
2458572.364625474
  9
$TDINDWG
 40
0.0949521412
  9
$TDUSRTIMER
 40
0.0949513426
  9
$USRTIMER
 70
     1
  9
$ANGBASE
 50
0.0
  9
$ANGDIR
 70
     0
  9
$PDMODE
 70
     0
  9
$PDSIZE
 40
0.0
  9
$PLINEWID
 40
0.0
  9
$SPLFRAME
 70
     0
  9
$SPLINETYPE
 70
     6
  9
$SPLINESEGS
 70
     8
  9
$HANDSEED
  5
3F0
  9
$SURFTAB1
 70
     6
  9
$SURFTAB2
 70
     6
  9
$SURFTYPE
 70
     6
  9
$SURFU
 70
     6
  9
$SURFV
 70
     6
  9
$UCSBASE
  2

  9
$UCSNAME
  2

  9
$UCSORG
 10
0.0
 20
0.0
 30
0.0
  9
$UCSXDIR
 10
1.0
 20
0.0
 30
0.0
  9
$UCSYDIR
 10
0.0
 20
1.0
 30
0.0
  9
$UCSORTHOREF
  2

  9
$UCSORTHOVIEW
 70
     0
  9
$UCSORGTOP
 10
0.0
 20
0.0
 30
0.0
  9
$UCSORGBOTTOM
 10
0.0
 20
0.0
 30
0.0
  9
$UCSORGLEFT
 10
0.0
 20
0.0
 30
0.0
  9
$UCSORGRIGHT
 10
0.0
 20
0.0
 30
0.0
  9
$UCSORGFRONT
 10
0.0
 20
0.0
 30
0.0
  9
$UCSORGBACK
 10
0.0
 20
0.0
 30
0.0
  9
$PUCSBASE
  2

  9
$PUCSNAME
  2

  9
$PUCSORG
 10
0.0
 20
0.0
 30
0.0
  9
$PUCSXDIR
 10
1.0
 20
0.0
 30
0.0
  9
$PUCSYDIR
 10
0.0
 20
1.0
 30
0.0
  9
$PUCSORTHOREF
  2

  9
$PUCSORTHOVIEW
 70
     0
  9
$PUCSORGTOP
 10
0.0
 20
0.0
 30
0.0
  9
$PUCSORGBOTTOM
 10
0.0
 20
0.0
 30
0.0
  9
$PUCSORGLEFT
 10
0.0
 20
0.0
 30
0.0
  9
$PUCSORGRIGHT
 10
0.0
 20
0.0
 30
0.0
  9
$PUCSORGFRONT
 10
0.0
 20
0.0
 30
0.0
  9
$PUCSORGBACK
 10
0.0
 20
0.0
 30
0.0
  9
$USERI1
 70
     0
  9
$USERI2
 70
     0
  9
$USERI3
 70
     0
  9
$USERI4
 70
     0
  9
$USERI5
 70
     0
  9
$USERR1
 40
0.0
  9
$USERR2
 40
0.0
  9
$USERR3
 40
0.0
  9
$USERR4
 40
0.0
  9
$USERR5
 40
0.0
  9
$WORLDVIEW
 70
     1
  9
$SHADEDGE
 70
     3
  9
$SHADEDIF
 70
    70
  9
$TILEMODE
 70
     1
  9
$MAXACTVP
 70
    64
  9
$PINSBASE
 10
0.0
 20
0.0
 30
0.0
  9
$PLIMCHECK
 70
     0
  9
$PEXTMIN
 10
0.0
 20
0.0
 30
0.0
  9
$PEXTMAX
 10
0.0
 20
0.0
 30
0.0
  9
$PLIMMIN
 10
0.0
 20
0.0
  9
$PLIMMAX
 10
12.0
 20
9.0
  9
$UNITMODE
 70
     0
  9
$VISRETAIN
 70
     1
  9
$PLINEGEN
 70
     0
  9
$PSLTSCALE
 70
     1
  9
$TREEDEPTH
 70
  3020
  9
$CMLSTYLE
  2
Standard
  9
$CMLJUST
 70
     0
  9
$CMLSCALE
 40
20.0
  9
$PROXYGRAPHICS
 70
     1
  9
$MEASUREMENT
 70
     1
  9
$CELWEIGHT
370
    -1
  9
$ENDCAPS
280
     0
  9
$JOINSTYLE
280
     0
  9
$LWDISPLAY
290
     0
  9
$INSUNITS
 70
     4
  9
$HYPERLINKBASE
  1

  9
$STYLESHEET
  1

  9
$XEDIT
290
     1
  9
$CEPSNTYPE
380
     0
  9
$PSTYLEMODE
290
     1
  9
$FINGERPRINTGUID
  2
{F0CA4D03-D9D6-4A42-8BBF-4D078B385DF0}
  9
$VERSIONGUID
  2
{FEF99E14-3812-4F69-B64B-5CB4EE9FAF70}
  9
$EXTNAMES
290
     1
  9
$PSVPSCALE
 40
0.0
  9
$OLESTARTUP
290
     0
  9
$SORTENTS
280
   127
  9
$INDEXCTL
280
     0
  9
$HIDETEXT
280
     1
  9
$XCLIPFRAME
290
     0
  9
$HALOGAP
280
     0
  9
$OBSCOLOR
 70
   257
  9
$OBSLTYPE
280
     0
  9
$INTERSECTIONDISPLAY
280
     0
  9
$INTERSECTIONCOLOR
 70
   257
  9
$DIMASSOC
280
     2
  9
$PROJECTNAME
  1

  0
ENDSEC
  0
SECTION
  2
CLASSES
  0
CLASS
  1
ACDBDICTIONARYWDFLT
  2
AcDbDictionaryWithDefault
  3
ObjectDBX Classes
 90
        0
 91
        1
280
     0
281
     0
  0
CLASS
  1
DICTIONARYVAR
  2
AcDbDictionaryVar
  3
ObjectDBX Classes
 90
        0
 91
        5
280
     0
281
     0
  0
CLASS
  1
TABLESTYLE
  2
AcDbTableStyle
  3
ObjectDBX Classes
 90
     4095
 91
        1
280
     0
281
     0
  0
CLASS
  1
MATERIAL
  2
AcDbMaterial
  3
ObjectDBX Classes
 90
     1024
 91
        3
280
     0
281
     0
  0
CLASS
  1
VISUALSTYLE
  2
AcDbVisualStyle
  3
ObjectDBX Classes
 90
     4095
 91
       16
280
     0
281
     0
  0
CLASS
  1
DIMASSOC
  2
AcDbDimAssoc
  3
"AcDbDimAssoc|Product Desc:     AcDim ARX App For Dimension|Company:          Autodesk, Inc.|WEB Address:      www.autodesk.com"
 90
        0
 91
        8
280
     0
281
     0
  0
ENDSEC
  0
SECTION
  2
TABLES
  0
TABLE
  2
VPORT
  5
8
330
0
100
AcDbSymbolTable
 70
     1
  0
VPORT
  5
EA
330
8
100
AcDbSymbolTableRecord
100
AcDbViewportTableRecord
  2
*Active
 70
     0
 10
0.0
 20
0.0
 11
1.0
 21
1.0
 12
1069.410449796733
 22
1738.331330126069
 13
0.0
 23
0.0
 14
10.0
 24
10.0
 15
10.0
 25
10.0
 16
0.0
 26
0.0
 36
1.0
 17
0.0
 27
0.0
 37
0.0
 40
116.204516351328
 41
1.384514435695538
 42
50.0
 43
0.0
 44
0.0
 50
0.0
 51
0.0
 71
     0
 72
  1000
 73
     1
 74
     3
 75
     0
 76
     0
 77
     0
 78
     0
281
     0
 65
     1
110
0.0
120
0.0
130
0.0
111
1.0
121
0.0
131
0.0
112
0.0
122
1.0
132
0.0
 79
     0
146
0.0
  0
ENDTAB
  0
TABLE
  2
LTYPE
  5
5
330
0
100
AcDbSymbolTable
 70
     4
  0
LTYPE
  5
14
330
5
100
AcDbSymbolTableRecord
100
AcDbLinetypeTableRecord
  2
ByBlock
 70
     0
  3

 72
    65
 73
     0
 40
0.0
  0
LTYPE
  5
15
330
5
100
AcDbSymbolTableRecord
100
AcDbLinetypeTableRecord
  2
ByLayer
 70
     0
  3

 72
    65
 73
     0
 40
0.0
  0
LTYPE
  5
16
330
5
100
AcDbSymbolTableRecord
100
AcDbLinetypeTableRecord
  2
Continuous
 70
     0
  3
Solid line
 72
    65
 73
     0
 40
0.0
  0
LTYPE
  5
149
330
5
100
AcDbSymbolTableRecord
100
AcDbLinetypeTableRecord
  2
ACAD_ISO02W100
 70
     0
  3
ISO dash __ __ __ __ __ __ __ __ __ __ __ __ __
 72
    65
 73
     2
 40
15.0
 49
12.0
 74
     0
 49
-3.0
 74
     0
  0
LTYPE
  5
14A
330
5
100
AcDbSymbolTableRecord
100
AcDbLinetypeTableRecord
  2
ACAD_ISO07W100
 70
     0
  3
ISO dot . . . . . . . . . . . . . . . . . . . .
 72
    65
 73
     2
 40
3.0
 49
0.0
 74
     0
 49
-3.0
 74
     0
  0
LTYPE
  5
14B
330
5
100
AcDbSymbolTableRecord
100
AcDbLinetypeTableRecord
  2
DASHED2
 70
     0
  3
Dashed (.5x) _ _ _ _ _ _ _ _ _ _ _ _ _ _ _ _ _
 72
    65
 73
     2
 40
9.524999999999998
 49
6.349999999999999
 74
     0
 49
-3.174999999999999
 74
     0
  0
ENDTAB
  0
TABLE
  2
LAYER
  5
2
330
0
100
AcDbSymbolTable
 70
     2
  0
LAYER
  5
10
330
2
100
AcDbSymbolTableRecord
100
AcDbLayerTableRecord
  2
0
 70
     0
 62
     7
  6
Continuous
370
    -3
390
F
  0
LAYER
  5
113
330
2
100
AcDbSymbolTableRecord
100
AcDbLayerTableRecord
  2
Defpoints
 70
     0
 62
     7
  6
Continuous
290
     0
370
    -3
390
F
  0
ENDTAB
  0
TABLE
  2
STYLE
  5
3
330
0
100
AcDbSymbolTable
 70
     2
  0
STYLE
  5
11
330
3
100
AcDbSymbolTableRecord
100
AcDbTextStyleTableRecord
  2
Standard
 70
     0
 40
0.0
 41
1.0
 50
0.0
 71
     0
 42
2.5
  3
txt
  4

  0
STYLE
  5
148
330
3
100
AcDbSymbolTableRecord
100
AcDbTextStyleTableRecord
  2

 70
     1
 40
0.0
 41
1.0
 50
0.0
 71
     0
 42
2.5
  3
ltypeshp.shx
  4

  0
ENDTAB
  0
TABLE
  2
VIEW
  5
6
330
0
100
AcDbSymbolTable
 70
     0
  0
ENDTAB
  0
TABLE
  2
UCS
  5
7
330
0
100
AcDbSymbolTable
 70
     0
  0
ENDTAB
  0
TABLE
  2
APPID
  5
9
330
0
100
AcDbSymbolTable
 70
     3
  0
APPID
  5
12
330
9
100
AcDbSymbolTableRecord
100
AcDbRegAppTableRecord
  2
ACAD
 70
     0
  0
APPID
  5
9E
330
9
100
AcDbSymbolTableRecord
100
AcDbRegAppTableRecord
  2
ACAD_PSEXT
 70
     0
  0
APPID
  5
12F
330
9
100
AcDbSymbolTableRecord
100
AcDbRegAppTableRecord
  2
ACAD_EXEMPT_FROM_CAD_STANDARDS
 70
     0
  0
ENDTAB
  0
TABLE
  2
DIMSTYLE
  5
A
330
0
100
AcDbSymbolTable
 70
     1
100
AcDbDimStyleTable
 71
     1
340
27
  0
DIMSTYLE
105
27
102
{ACAD_REACTORS
330
156
330
177
330
19A
330
1EA
330
204
330
222
330
2B3
330
2CF
330
306
330
38C
102
}
330
A
100
AcDbSymbolTableRecord
100
AcDbDimStyleTableRecord
  2
ISO-25
 70
     0
 41
2.5
 42
0.625
 43
3.75
 44
1.25
 73
     0
 74
     0
 77
     1
 78
     8
140
2.5
141
2.5
143
0.03937007874016
147
0.625
171
     3
172
     1
271
     2
272
     2
274
     3
278
    44
283
     0
284
     8
340
11
  0
ENDTAB
  0
TABLE
  2
BLOCK_RECORD
  5
1
330
0
100
AcDbSymbolTable
 70
    13
  0
BLOCK_RECORD
  5
1F
330
1
100
AcDbSymbolTableRecord
100
AcDbBlockTableRecord
  2
*Model_Space
340
22
  0
BLOCK_RECORD
  5
D2
330
1
100
AcDbSymbolTableRecord
100
AcDbBlockTableRecord
  2
*Paper_Space
340
D3
  0
BLOCK_RECORD
  5
D6
330
1
100
AcDbSymbolTableRecord
100
AcDbBlockTableRecord
  2
*Paper_Space0
340
D7
  0
BLOCK_RECORD
  5
157
330
1
100
AcDbSymbolTableRecord
100
AcDbBlockTableRecord
  2
*D1
340
0
  0
BLOCK_RECORD
  5
178
330
1
100
AcDbSymbolTableRecord
100
AcDbBlockTableRecord
  2
*D2
340
0
  0
BLOCK_RECORD
  5
19B
330
1
100
AcDbSymbolTableRecord
100
AcDbBlockTableRecord
  2
*D3
340
0
  0
BLOCK_RECORD
  5
1EB
330
1
100
AcDbSymbolTableRecord
100
AcDbBlockTableRecord
  2
*D4
340
0
  0
BLOCK_RECORD
  5
205
330
1
100
AcDbSymbolTableRecord
100
AcDbBlockTableRecord
  2
*D5
340
0
  0
BLOCK_RECORD
  5
223
330
1
100
AcDbSymbolTableRecord
100
AcDbBlockTableRecord
  2
*D6
340
0
  0
BLOCK_RECORD
  5
2B4
330
1
100
AcDbSymbolTableRecord
100
AcDbBlockTableRecord
  2
*D8
340
0
  0
BLOCK_RECORD
  5
2D0
330
1
100
AcDbSymbolTableRecord
100
AcDbBlockTableRecord
  2
*D9
340
0
  0
BLOCK_RECORD
  5
307
330
1
100
AcDbSymbolTableRecord
100
AcDbBlockTableRecord
  2
*D10
340
0
  0
BLOCK_RECORD
  5
38D
330
1
100
AcDbSymbolTableRecord
100
AcDbBlockTableRecord
  2
*D12
340
0
  0
ENDTAB
  0
ENDSEC
  0
SECTION
  2
BLOCKS
  0
BLOCK
  5
20
330
1F
100
AcDbEntity
  8
0
100
AcDbBlockBegin
  2
*Model_Space
 70
     0
 10
0.0
 20
0.0
 30
0.0
  3
*Model_Space
  1

  0
ENDBLK
  5
21
330
1F
100
AcDbEntity
  8
0
100
AcDbBlockEnd
  0
BLOCK
  5
D4
330
D2
100
AcDbEntity
 67
     1
  8
0
100
AcDbBlockBegin
  2
*Paper_Space
 70
     0
 10
0.0
 20
0.0
 30
0.0
  3
*Paper_Space
  1

  0
ENDBLK
  5
D5
330
D2
100
AcDbEntity
 67
     1
  8
0
100
AcDbBlockEnd
  0
BLOCK
  5
D8
330
D6
100
AcDbEntity
 67
     1
  8
0
100
AcDbBlockBegin
  2
*Paper_Space0
 70
     0
 10
0.0
 20
0.0
 30
0.0
  3
*Paper_Space0
  1

  0
ENDBLK
  5
D9
330
D6
100
AcDbEntity
 67
     1
  8
0
100
AcDbBlockEnd
  0
BLOCK
  5
161
330
157
100
AcDbEntity
  8
0
100
AcDbBlockBegin
  2
*D1
 70
     1
 10
0.0
 20
0.0
 30
0.0
  3
*D1
  1

  0
LINE
  5
327
330
157
100
AcDbEntity
  8
0
 62
     0
370
    -2
100
AcDbLine
 10
1014.547760618708
 20
1772.640487681522
 30
0.0
 11
1009.417939599959
 21
1781.525598319728
 31
0.0
  0
LINE
  5
328
330
157
100
AcDbEntity
  8
0
 62
     0
370
    -2
100
AcDbLine
 10
1027.538141675474
 20
1780.140487681522
 30
0.0
 11
1022.408320656726
 21
1789.025598319728
 31
0.0
  0
LINE
  5
329
330
157
100
AcDbEntity
  8
0
 62
     0
370
    -2
100
AcDbLine
 10
1012.20800310942
 20
1781.693066564998
 30
0.0
 11
1020.868257147264
 21
1786.693066564998
 31
0.0
  0
SOLID
  5
32A
330
157
100
AcDbEntity
  8
0
 62
     0
100
AcDbTrace
 10
1011.999669776087
 20
1782.053910483242
 30
0.0
 11
1012.416336442754
 21
1781.332222646754
 31
0.0
 12
1010.042939599959
 22
1780.443066564998
 32
0.0
 13
1010.042939599959
 23
1780.443066564998
 33
0.0
  0
SOLID
  5
32B
330
157
100
AcDbEntity
  8
0
 62
     0
100
AcDbTrace
 10
1020.659923813931
 20
1787.053910483242
 30
0.0
 11
1021.076590480598
 21
1786.332222646754
 31
0.0
 12
1023.033320656725
 22
1787.943066564998
 32
0.0
 13
1023.033320656725
 23
1787.943066564998
 33
0.0
  0
MTEXT
  5
32C
330
157
100
AcDbEntity
  8
0
 62
     0
100
AcDbMText
 10
1015.600630128342
 20
1785.816864197094
 30
0.0
 40
2.5
 41
0.0
 71
     5
 72
     1
  1
15
 11
0.8660254037844291
 21
0.5000000000000165
 31
0.0
 73
     1
 44
1.0
  0
POINT
  5
32D
330
157
100
AcDbEntity
  8
Defpoints
 62
     0
100
AcDbPoint
 10
1014.860260618708
 20
1772.099221804157
 30
0.0
  0
POINT
  5
32E
330
157
100
AcDbEntity
  8
Defpoints
 62
     0
100
AcDbPoint
 10
1027.850641675474
 20
1779.599221804157
 30
0.0
  0
POINT
  5
32F
330
157
100
AcDbEntity
  8
Defpoints
 62
     0
100
AcDbPoint
 10
1023.033320656725
 20
1787.943066564998
 30
0.0
  0
ENDBLK
  5
162
330
157
100
AcDbEntity
  8
0
100
AcDbBlockEnd
  0
BLOCK
  5
182
330
178
100
AcDbEntity
  8
0
100
AcDbBlockBegin
  2
*D2
 70
     1
 10
0.0
 20
0.0
 30
0.0
  3
*D2
  1

  0
LINE
  5
18F
330
178
100
AcDbEntity
  8
0
 62
     0
370
    -2
100
AcDbLine
 10
1012.850641675474
 20
1748.974221804157
 30
0.0
 11
1012.850641675474
 21
1742.335070146047
 31
0.0
  0
LINE
  5
190
330
178
100
AcDbEntity
  8
0
 62
     0
370
    -2
100
AcDbLine
 10
1042.850641675474
 20
1748.974221804157
 30
0.0
 11
1042.850641675474
 21
1742.335070146047
 31
0.0
  0
LINE
  5
191
330
178
100
AcDbEntity
  8
0
 62
     0
370
    -2
100
AcDbLine
 10
1015.350641675474
 20
1743.585070146047
 30
0.0
 11
1040.350641675474
 21
1743.585070146047
 31
0.0
  0
SOLID
  5
192
330
178
100
AcDbEntity
  8
0
 62
     0
100
AcDbTrace
 10
1015.350641675474
 20
1744.001736812714
 30
0.0
 11
1015.350641675474
 21
1743.16840347938
 31
0.0
 12
1012.850641675474
 22
1743.585070146047
 32
0.0
 13
1012.850641675474
 23
1743.585070146047
 33
0.0
  0
SOLID
  5
193
330
178
100
AcDbEntity
  8
0
 62
     0
100
AcDbTrace
 10
1040.350641675474
 20
1744.001736812714
 30
0.0
 11
1040.350641675474
 21
1743.16840347938
 31
0.0
 12
1042.850641675474
 22
1743.585070146047
 32
0.0
 13
1042.850641675474
 23
1743.585070146047
 33
0.0
  0
MTEXT
  5
194
330
178
100
AcDbEntity
  8
0
 62
     0
100
AcDbMText
 10
1027.850641675474
 20
1745.460070146047
 30
0.0
 40
2.5
 41
0.0
 71
     5
 72
     1
  1
30
 73
     1
 44
1.0
  0
POINT
  5
195
330
178
100
AcDbEntity
  8
Defpoints
 62
     0
100
AcDbPoint
 10
1012.850641675474
 20
1749.599221804157
 30
0.0
  0
POINT
  5
196
330
178
100
AcDbEntity
  8
Defpoints
 62
     0
100
AcDbPoint
 10
1042.850641675474
 20
1749.599221804157
 30
0.0
  0
POINT
  5
197
330
178
100
AcDbEntity
  8
Defpoints
 62
     0
100
AcDbPoint
 10
1042.850641675474
 20
1743.585070146047
 30
0.0
  0
ENDBLK
  5
183
330
178
100
AcDbEntity
  8
0
100
AcDbBlockEnd
  0
BLOCK
  5
1A5
330
19B
100
AcDbEntity
  8
0
100
AcDbBlockBegin
  2
*D3
 70
     1
 10
0.0
 20
0.0
 30
0.0
  3
*D3
  1

  0
LINE
  5
1B2
330
19B
100
AcDbEntity
  8
0
 62
     0
370
    -2
100
AcDbLine
 10
1018.772760618708
 20
1759.718948650605
 30
0.0
 11
1020.921430168023
 21
1763.440553478694
 31
0.0
  0
LINE
  5
1B3
330
19B
100
AcDbEntity
  8
0
 62
     0
370
    -2
100
AcDbLine
 10
1028.163141675474
 20
1754.297409619687
 30
0.0
 11
1030.311811224789
 21
1758.019014447777
 31
0.0
  0
LINE
  5
1B4
330
19B
100
AcDbEntity
  8
0
 62
     0
370
    -2
100
AcDbLine
 10
1022.461493677484
 20
1761.108021723964
 30
0.0
 11
1027.521747715328
 21
1758.186482693046
 31
0.0
  0
SOLID
  5
1B5
330
19B
100
AcDbEntity
  8
0
 62
     0
100
AcDbTrace
 10
1022.669827010817
 20
1761.468865642207
 30
0.0
 11
1022.25316034415
 21
1760.74717780572
 31
0.0
 12
1020.296430168023
 22
1762.358021723964
 32
0.0
 13
1020.296430168023
 23
1762.358021723964
 33
0.0
  0
SOLID
  5
1B6
330
19B
100
AcDbEntity
  8
0
 62
     0
100
AcDbTrace
 10
1027.730081048661
 20
1758.54732661129
 30
0.0
 11
1027.313414381995
 21
1757.825638774803
 31
0.0
 12
1029.686811224789
 22
1756.936482693046
 32
0.0
 13
1029.686811224789
 23
1756.936482693046
 33
0.0
  0
MTEXT
  5
1B7
330
19B
100
AcDbEntity
  8
0
 62
     0
100
AcDbMText
 10
1026.033287363073
 20
1761.451471799722
 30
0.0
 40
2.5
 41
0.0
 71
     5
 72
     1
  1
10,84
 11
0.8660254037844387
 21
-0.5000000000000004
 31
0.0
 73
     1
 44
1.0
  0
POINT
  5
1B8
330
19B
100
AcDbEntity
  8
Defpoints
 62
     0
100
AcDbPoint
 10
1018.460260618708
 20
1759.177682773239
 30
0.0
  0
POINT
  5
1B9
330
19B
100
AcDbEntity
  8
Defpoints
 62
     0
100
AcDbPoint
 10
1027.850641675474
 20
1753.756143742322
 30
0.0
  0
POINT
  5
1BA
330
19B
100
AcDbEntity
  8
Defpoints
 62
     0
100
AcDbPoint
 10
1029.686811224789
 20
1756.936482693046
 30
0.0
  0
ENDBLK
  5
1A6
330
19B
100
AcDbEntity
  8
0
100
AcDbBlockEnd
  0
BLOCK
  5
1F6
330
1EB
100
AcDbEntity
  8
0
100
AcDbBlockBegin
  2
*D4
 70
     1
 10
0.0
 20
0.0
 30
0.0
  3
*D4
  1

  0
LINE
  5
258
330
1EB
100
AcDbEntity
  8
0
 62
     0
370
    -2
100
AcDbLine
 10
1111.251863691639
 20
1758.138452288698
 30
0.0
 11
1114.338223527353
 21
1758.138452288697
 31
0.0
  0
ARC
  5
259
330
1EB
100
AcDbEntity
  8
0
 62
     0
370
    -2
100
AcDbCircle
 10
1097.705324660722
 20
1758.138452288698
 30
0.0
 40
15.38289886663067
100
AcDbArc
 50
9.321881144690683
 51
80.67811885530892
  0
SOLID
  5
25A
330
1EB
100
AcDbEntity
  8
0
 62
     0
100
AcDbTrace
 10
1113.30036461725
 20
1760.66404276799
 30
0.0
 11
1112.469787105594
 21
1760.596326879346
 31
0.0
 12
1113.088223527353
 22
1758.138452288697
 32
0.0
 13
1113.088223527353
 23
1758.138452288697
 33
0.0
  0
SOLID
  5
25B
330
1EB
100
AcDbEntity
  8
0
 62
     0
100
AcDbTrace
 10
1100.16319925137
 20
1772.90291473357
 30
0.0
 11
1100.230915140014
 21
1773.733492245226
 31
0.0
 12
1097.705324660722
 22
1773.521351155328
 32
0.0
 13
1097.705324660722
 23
1773.521351155328
 33
0.0
  0
MTEXT
  5
25C
330
1EB
100
AcDbEntity
  8
0
 62
     0
100
AcDbMText
 10
1109.908501978348
 20
1770.341629606324
 30
0.0
 40
2.5
 41
0.0
 71
     5
 72
     1
  1
90\U+00B0
 11
0.7071067811865476
 21
-0.7071067811865475
 31
0.0
 73
     1
 44
1.0
  0
POINT
  5
25D
330
1EB
100
AcDbEntity
  8
Defpoints
 62
     0
100
AcDbPoint
 10
1111.027305863071
 20
1765.829901722013
 30
0.0
  0
POINT
  5
25E
330
1EB
100
AcDbEntity
  8
Defpoints
 62
     0
100
AcDbPoint
 10
1110.626863691639
 20
1758.138452288698
 30
0.0
  0
POINT
  5
25F
330
1EB
100
AcDbEntity
  8
Defpoints
 62
     0
100
AcDbPoint
 10
1097.705324660722
 20
1758.138452288698
 30
0.0
  0
POINT
  5
260
330
1EB
100
AcDbEntity
  8
Defpoints
 62
     0
100
AcDbPoint
 10
1097.705324660722
 20
1774.205195954379
 30
0.0
  0
POINT
  5
261
330
1EB
100
AcDbEntity
  8
Defpoints
 62
     0
100
AcDbPoint
 10
1097.705324660722
 20
1758.138452288698
 30
0.0
  0
ENDBLK
  5
1F7
330
1EB
100
AcDbEntity
  8
0
100
AcDbBlockEnd
  0
BLOCK
  5
212
330
205
100
AcDbEntity
  8
0
100
AcDbBlockBegin
  2
*D5
 70
     1
 10
0.0
 20
0.0
 30
0.0
  3
*D5
  1

  0
LINE
  5
24C
330
205
100
AcDbEntity
  8
0
 62
     0
370
    -2
100
AcDbLine
 10
1099.057055145263
 20
1760.479718166063
 30
0.0
 11
1103.593135141096
 21
1768.336439186041
 31
0.0
  0
ARC
  5
24D
330
205
100
AcDbEntity
  8
0
 62
     0
370
    -2
100
AcDbCircle
 10
1097.705324660722
 20
1758.138452288698
 30
0.0
 40
10.52562096074662
100
AcDbArc
 50
46.35916125703377
 51
59.9999999999958
  0
LINE
  5
24E
330
205
100
AcDbEntity
  8
0
 62
     0
370
    -2
100
AcDbLine
 10
1104.969429733394
 20
1765.755635107987
 30
0.0
 11
1109.793963980318
 21
1761.15473152883
 31
0.0
  0
ARC
  5
24F
330
205
100
AcDbEntity
  8
0
 62
     0
370
    -2
100
AcDbCircle
 10
1097.705324660722
 20
1758.138452288698
 30
0.0
 40
10.52562096074662
100
AcDbArc
 50
73.64083874295783
 51
76.35916125703807
  0
SOLID
  5
250
330
205
100
AcDbEntity
  8
0
 62
     0
100
AcDbTrace
 10
1100.833951917116
 20
1768.620974758692
 30
0.0
 11
1100.505939985207
 21
1767.854911695381
 31
0.0
 12
1102.968135141096
 22
1767.25390743131
 32
0.0
 13
1102.968135141096
 23
1767.25390743131
 33
0.0
  0
SOLID
  5
251
330
205
100
AcDbEntity
  8
0
 62
     0
100
AcDbTrace
 10
1100.138150346831
 20
1767.953460631968
 30
0.0
 11
1100.23711521271
 21
1768.780896671651
 31
0.0
 12
1097.705324660722
 22
1768.664073249444
 32
0.0
 13
1097.705324660722
 23
1768.664073249444
 33
0.0
  0
MTEXT
  5
252
330
205
100
AcDbEntity
  8
0
 62
     0
100
AcDbMText
 10
1108.675700988494
 20
1764.812083575356
 30
0.0
 40
2.5
 41
0.0
 71
     5
 72
     1
  1
30\U+00B0
 11
0.7236801370386043
 21
-0.690135536873582
 31
0.0
 73
     1
 44
1.0
  0
POINT
  5
253
330
205
100
AcDbEntity
  8
Defpoints
 62
     0
100
AcDbPoint
 10
1099.533079559368
 20
1768.504165416109
 30
0.0
  0
POINT
  5
254
330
205
100
AcDbEntity
  8
Defpoints
 62
     0
100
AcDbPoint
 10
1097.705324660722
 20
1758.138452288698
 30
0.0
  0
POINT
  5
255
330
205
100
AcDbEntity
  8
Defpoints
 62
     0
100
AcDbPoint
 10
1098.744555145263
 20
1759.938452288698
 30
0.0
  0
POINT
  5
256
330
205
100
AcDbEntity
  8
Defpoints
 62
     0
100
AcDbPoint
 10
1097.705324660722
 20
1758.138452288698
 30
0.0
  0
POINT
  5
257
330
205
100
AcDbEntity
  8
Defpoints
 62
     0
100
AcDbPoint
 10
1097.705324660722
 20
1774.205195954378
 30
0.0
  0
ENDBLK
  5
213
330
205
100
AcDbEntity
  8
0
100
AcDbBlockEnd
  0
BLOCK
  5
230
330
223
100
AcDbEntity
  8
0
100
AcDbBlockBegin
  2
*D6
 70
     1
 10
0.0
 20
0.0
 30
0.0
  3
*D6
  1

  0
LINE
  5
240
330
223
100
AcDbEntity
  8
0
 62
     0
370
    -2
100
AcDbLine
 10
1099.057055145263
 20
1760.479718166063
 30
0.0
 11
1101.750683161069
 21
1765.145218746128
 31
0.0
  0
ARC
  5
241
330
223
100
AcDbEntity
  8
0
 62
     0
370
    -2
100
AcDbCircle
 10
1097.705324660722
 20
1758.138452288697
 30
0.0
 40
6.840717000693079
100
AcDbArc
 50
317.8848831744677
 51
338.9424415872339
  0
ARC
  5
242
330
223
100
AcDbEntity
  8
0
 62
     0
370
    -2
100
AcDbCircle
 10
1097.705324660722
 20
1758.138452288697
 30
0.0
 40
6.840717000693079
100
AcDbArc
 50
81.05755841275817
 51
102.1151168255244
  0
ARC
  5
243
330
223
100
AcDbEntity
  8
0
 62
     0
370
    -2
100
AcDbCircle
 10
1097.705324660722
 20
1758.138452288697
 30
0.0
 40
6.840717000693079
100
AcDbArc
 50
0.0000000000001527
 51
59.99999999999194
  0
SOLID
  5
244
330
223
100
AcDbEntity
  8
0
 62
     0
100
AcDbTrace
 10
1103.679566849375
 20
1755.756681411554
 30
0.0
 11
1104.498869556126
 21
1755.604406925332
 31
0.0
 12
1104.546041661415
 22
1758.138452288697
 32
0.0
 13
1104.546041661415
 23
1758.138452288697
 33
0.0
  0
SOLID
  5
245
330
223
100
AcDbEntity
  8
0
 62
     0
100
AcDbTrace
 10
1098.907549449408
 20
1765.288857431551
 30
0.0
 11
1098.629771669448
 21
1764.503183231004
 31
0.0
 12
1101.125683161069
 22
1764.062686991398
 32
0.0
 13
1101.125683161069
 23
1764.062686991398
 33
0.0
  0
MTEXT
  5
246
330
223
100
AcDbEntity
  8
0
 62
     0
100
AcDbMText
 10
1105.253356995518
 20
1762.496310789044
 30
0.0
 40
2.5
 41
0.0
 71
     5
 72
     1
  1
60\U+00B0
 11
0.4999999999999911
 21
-0.8660254037844438
 31
0.0
 73
     1
 44
1.0
  0
POINT
  5
247
330
223
100
AcDbEntity
  8
Defpoints
 62
     0
100
AcDbPoint
 10
1104.133495947158
 20
1760.478115297725
 30
0.0
  0
POINT
  5
248
330
223
100
AcDbEntity
  8
Defpoints
 62
     0
100
AcDbPoint
 10
1098.744555145263
 20
1759.938452288698
 30
0.0
  0
POINT
  5
249
330
223
100
AcDbEntity
  8
Defpoints
 62
     0
100
AcDbPoint
 10
1110.626863691639
 20
1758.138452288697
 30
0.0
  0
POINT
  5
24A
330
223
100
AcDbEntity
  8
Defpoints
 62
     0
100
AcDbPoint
 10
1097.705324660722
 20
1758.138452288697
 30
0.0
  0
POINT
  5
24B
330
223
100
AcDbEntity
  8
Defpoints
 62
     0
100
AcDbPoint
 10
1097.705324660722
 20
1758.138452288697
 30
0.0
  0
ENDBLK
  5
231
330
223
100
AcDbEntity
  8
0
100
AcDbBlockEnd
  0
BLOCK
  5
2C0
330
2B4
100
AcDbEntity
  8
0
100
AcDbBlockBegin
  2
*D8
 70
     1
 10
0.0
 20
0.0
 30
0.0
  3
*D8
  1

  0
LINE
  5
3C1
330
2B4
100
AcDbEntity
  8
0
 62
     0
370
    -2
100
AcDbLine
 10
1012.2596944119
 20
1716.681324692164
 30
0.0
 11
1004.855756698952
 21
1716.681324692164
 31
0.0
  0
LINE
  5
3C2
330
2B4
100
AcDbEntity
  8
0
 62
     0
370
    -2
100
AcDbLine
 10
1012.357324498378
 20
1721.68610192001
 30
0.0
 11
1004.855756698952
 21
1721.68610192001
 31
0.0
  0
LINE
  5
3C3
330
2B4
100
AcDbEntity
  8
0
 62
     0
370
    -2
100
AcDbLine
 10
1006.105756698952
 20
1714.181324692164
 30
0.0
 11
1006.105756698952
 21
1711.681324692164
 31
0.0
  0
LINE
  5
3C4
330
2B4
100
AcDbEntity
  8
0
 62
     0
370
    -2
100
AcDbLine
 10
1006.105756698952
 20
1724.186101920009
 30
0.0
 11
1006.105756698952
 21
1726.68610192001
 31
0.0
  0
LINE
  5
3C5
330
2B4
100
AcDbEntity
  8
0
 62
     0
370
    -2
100
AcDbLine
 10
1006.105756698952
 20
1716.681324692164
 30
0.0
 11
1006.105756698952
 21
1721.68610192001
 31
0.0
  0
SOLID
  5
3C6
330
2B4
100
AcDbEntity
  8
0
 62
     0
100
AcDbTrace
 10
1005.689090032285
 20
1714.181324692164
 30
0.0
 11
1006.522423365619
 21
1714.181324692164
 31
0.0
 12
1006.105756698952
 22
1716.681324692164
 32
0.0
 13
1006.105756698952
 23
1716.681324692164
 33
0.0
  0
SOLID
  5
3C7
330
2B4
100
AcDbEntity
  8
0
 62
     0
100
AcDbTrace
 10
1005.689090032285
 20
1724.186101920009
 30
0.0
 11
1006.522423365619
 21
1724.186101920009
 31
0.0
 12
1006.105756698952
 22
1721.68610192001
 32
0.0
 13
1006.105756698952
 23
1721.68610192001
 33
0.0
  0
MTEXT
  5
3C8
330
2B4
100
AcDbEntity
  8
0
 62
     0
100
AcDbMText
 10
1004.230756698952
 20
1719.183713306087
 30
0.0
 40
2.5
 41
0.0
 71
     5
 72
     1
  1
5
 11
0.0000000000000001
 21
1.0
 31
0.0
 73
     1
 44
1.0
  0
POINT
  5
3C9
330
2B4
100
AcDbEntity
  8
Defpoints
 62
     0
100
AcDbPoint
 10
1012.8846944119
 20
1716.681324692164
 30
0.0
  0
POINT
  5
3CA
330
2B4
100
AcDbEntity
  8
Defpoints
 62
     0
100
AcDbPoint
 10
1012.982324498378
 20
1721.68610192001
 30
0.0
  0
POINT
  5
3CB
330
2B4
100
AcDbEntity
  8
Defpoints
 62
     0
100
AcDbPoint
 10
1006.105756698952
 20
1721.68610192001
 30
0.0
  0
ENDBLK
  5
2C1
330
2B4
100
AcDbEntity
  8
0
100
AcDbBlockEnd
  0
BLOCK
  5
2DA
330
2D0
100
AcDbEntity
  8
0
100
AcDbBlockBegin
  2
*D9
 70
     1
 10
0.0
 20
0.0
 30
0.0
  3
*D9
  1

  0
LINE
  5
3CC
330
2D0
100
AcDbEntity
  8
0
 62
     0
370
    -2
100
AcDbLine
 10
1012.982324498378
 20
1709.06110192001
 30
0.0
 11
1012.982324498378
 21
1701.583094135497
 31
0.0
  0
LINE
  5
3CD
330
2D0
100
AcDbEntity
  8
0
 62
     0
370
    -2
100
AcDbLine
 10
1027.982324498378
 20
1709.06110192001
 30
0.0
 11
1027.982324498378
 21
1701.583094135497
 31
0.0
  0
LINE
  5
3CE
330
2D0
100
AcDbEntity
  8
0
 62
     0
370
    -2
100
AcDbLine
 10
1015.482324498378
 20
1702.833094135497
 30
0.0
 11
1025.482324498378
 21
1702.833094135497
 31
0.0
  0
SOLID
  5
3CF
330
2D0
100
AcDbEntity
  8
0
 62
     0
100
AcDbTrace
 10
1015.482324498378
 20
1703.249760802164
 30
0.0
 11
1015.482324498378
 21
1702.41642746883
 31
0.0
 12
1012.982324498378
 22
1702.833094135497
 32
0.0
 13
1012.982324498378
 23
1702.833094135497
 33
0.0
  0
SOLID
  5
3D0
330
2D0
100
AcDbEntity
  8
0
 62
     0
100
AcDbTrace
 10
1025.482324498378
 20
1703.249760802164
 30
0.0
 11
1025.482324498378
 21
1702.41642746883
 31
0.0
 12
1027.982324498378
 22
1702.833094135497
 32
0.0
 13
1027.982324498378
 23
1702.833094135497
 33
0.0
  0
MTEXT
  5
3D1
330
2D0
100
AcDbEntity
  8
0
 62
     0
100
AcDbMText
 10
1020.482324498378
 20
1704.708094135497
 30
0.0
 40
2.5
 41
0.0
 71
     5
 72
     1
  1
15
 73
     1
 44
1.0
  0
POINT
  5
3D2
330
2D0
100
AcDbEntity
  8
Defpoints
 62
     0
100
AcDbPoint
 10
1012.982324498378
 20
1709.686101920009
 30
0.0
  0
POINT
  5
3D3
330
2D0
100
AcDbEntity
  8
Defpoints
 62
     0
100
AcDbPoint
 10
1027.982324498378
 20
1709.686101920009
 30
0.0
  0
POINT
  5
3D4
330
2D0
100
AcDbEntity
  8
Defpoints
 62
     0
100
AcDbPoint
 10
1027.982324498378
 20
1702.833094135497
 30
0.0
  0
ENDBLK
  5
2DB
330
2D0
100
AcDbEntity
  8
0
100
AcDbBlockEnd
  0
BLOCK
  5
311
330
307
100
AcDbEntity
  8
0
100
AcDbBlockBegin
  2
*D10
 70
     1
 10
0.0
 20
0.0
 30
0.0
  3
*D10
  1

  0
LINE
  5
31E
330
307
100
AcDbEntity
  8
0
 62
     0
370
    -2
100
AcDbLine
 10
1028.475641675474
 20
1764.599221804157
 30
0.0
 11
1034.880806427248
 21
1764.599221804157
 31
0.0
  0
LINE
  5
31F
330
307
100
AcDbEntity
  8
0
 62
     0
370
    -2
100
AcDbLine
 10
1028.475641675474
 20
1779.599221804157
 30
0.0
 11
1034.880806427248
 21
1779.599221804157
 31
0.0
  0
LINE
  5
320
330
307
100
AcDbEntity
  8
0
 62
     0
370
    -2
100
AcDbLine
 10
1033.630806427248
 20
1767.099221804157
 30
0.0
 11
1033.630806427248
 21
1777.099221804157
 31
0.0
  0
SOLID
  5
321
330
307
100
AcDbEntity
  8
0
 62
     0
100
AcDbTrace
 10
1033.214139760581
 20
1767.099221804157
 30
0.0
 11
1034.047473093915
 21
1767.099221804157
 31
0.0
 12
1033.630806427248
 22
1764.599221804157
 32
0.0
 13
1033.630806427248
 23
1764.599221804157
 33
0.0
  0
SOLID
  5
322
330
307
100
AcDbEntity
  8
0
 62
     0
100
AcDbTrace
 10
1033.214139760581
 20
1777.099221804157
 30
0.0
 11
1034.047473093915
 21
1777.099221804157
 31
0.0
 12
1033.630806427248
 22
1779.599221804157
 32
0.0
 13
1033.630806427248
 23
1779.599221804157
 33
0.0
  0
MTEXT
  5
323
330
307
100
AcDbEntity
  8
0
 62
     0
100
AcDbMText
 10
1031.755806427247
 20
1772.099221804157
 30
0.0
 40
2.5
 41
0.0
 71
     5
 72
     1
  1
15
 11
0.0000000000000001
 21
1.0
 31
0.0
 73
     1
 44
1.0
  0
POINT
  5
324
330
307
100
AcDbEntity
  8
Defpoints
 62
     0
100
AcDbPoint
 10
1027.850641675474
 20
1764.599221804157
 30
0.0
  0
POINT
  5
325
330
307
100
AcDbEntity
  8
Defpoints
 62
     0
100
AcDbPoint
 10
1027.850641675474
 20
1779.599221804157
 30
0.0
  0
POINT
  5
326
330
307
100
AcDbEntity
  8
Defpoints
 62
     0
100
AcDbPoint
 10
1033.630806427248
 20
1779.599221804157
 30
0.0
  0
ENDBLK
  5
312
330
307
100
AcDbEntity
  8
0
100
AcDbBlockEnd
  0
BLOCK
  5
399
330
38D
100
AcDbEntity
  8
0
100
AcDbBlockBegin
  2
*D12
 70
     1
 10
0.0
 20
0.0
 30
0.0
  3
*D12
  1

  0
LINE
  5
3D5
330
38D
100
AcDbEntity
  8
0
 62
     0
370
    -2
100
AcDbLine
 10
1012.357324498378
 20
1709.686101920009
 30
0.0
 11
999.8291048700314
 21
1709.686101920009
 31
0.0
  0
LINE
  5
3D6
330
38D
100
AcDbEntity
  8
0
 62
     0
370
    -2
100
AcDbLine
 10
1012.2596944119
 20
1716.681324692164
 30
0.0
 11
999.8291048700314
 21
1716.681324692164
 31
0.0
  0
LINE
  5
3D7
330
38D
100
AcDbEntity
  8
0
 62
     0
370
    -2
100
AcDbLine
 10
1001.079104870031
 20
1712.18610192001
 30
0.0
 11
1001.079104870031
 21
1714.181324692164
 31
0.0
  0
SOLID
  5
3D8
330
38D
100
AcDbEntity
  8
0
 62
     0
100
AcDbTrace
 10
1000.662438203365
 20
1712.18610192001
 30
0.0
 11
1001.495771536698
 21
1712.18610192001
 31
0.0
 12
1001.079104870031
 22
1709.686101920009
 32
0.0
 13
1001.079104870031
 23
1709.686101920009
 33
0.0
  0
SOLID
  5
3D9
330
38D
100
AcDbEntity
  8
0
 62
     0
100
AcDbTrace
 10
1000.662438203365
 20
1714.181324692164
 30
0.0
 11
1001.495771536698
 21
1714.181324692164
 31
0.0
 12
1001.079104870031
 22
1716.681324692164
 32
0.0
 13
1001.079104870031
 23
1716.681324692164
 33
0.0
  0
MTEXT
  5
3DA
330
38D
100
AcDbEntity
  8
0
 62
     0
100
AcDbMText
 10
999.2041048700311
 20
1712.931324692164
 30
0.0
 40
2.5
 41
0.0
 71
     5
 72
     1
  1
7
 11
0.0000000000000001
 21
1.0
 31
0.0
 73
     1
 44
1.0
  0
POINT
  5
3DB
330
38D
100
AcDbEntity
  8
Defpoints
 62
     0
100
AcDbPoint
 10
1012.982324498378
 20
1709.686101920009
 30
0.0
  0
POINT
  5
3DC
330
38D
100
AcDbEntity
  8
Defpoints
 62
     0
100
AcDbPoint
 10
1012.8846944119
 20
1716.681324692164
 30
0.0
  0
POINT
  5
3DD
330
38D
100
AcDbEntity
  8
Defpoints
 62
     0
100
AcDbPoint
 10
1001.079104870031
 20
1716.681324692164
 30
0.0
  0
ENDBLK
  5
39A
330
38D
100
AcDbEntity
  8
0
100
AcDbBlockEnd
  0
ENDSEC
  0
SECTION
  2
ENTITIES
  0
LWPOLYLINE
  5
12B
102
{ACAD_REACTORS
330
2E6
102
}
330
1F
100
AcDbEntity
  8
0
100
AcDbPolyline
 90
        4
 70
     1
 43
0.0
 10
1012.982324498378
 20
1709.686101920009
 10
1132.982324498378
 20
1709.686101920009
 10
1132.982324498378
 20
1739.68610192001
 10
1012.982324498378
 20
1739.68610192001
  0
LWPOLYLINE
  5
12C
102
{ACAD_REACTORS
330
18E
102
}
330
1F
100
AcDbEntity
  8
0
100
AcDbPolyline
 90
        4
 70
     1
 43
0.0
 10
1012.850641675474
 20
1749.599221804157
 10
1072.850641675474
 20
1749.599221804157
 10
1072.850641675474
 20
1779.599221804157
 10
1012.850641675474
 20
1779.599221804157
  0
LWPOLYLINE
  5
137
330
1F
100
AcDbEntity
  8
0
100
AcDbPolyline
 90
        6
 70
     1
 43
0.0
 10
1027.850641675474
 20
1779.599221804157
 10
1014.860260618708
 20
1772.099221804157
 10
1014.860260618708
 20
1757.099221804157
 10
1027.850641675474
 20
1749.599221804157
 10
1040.841022732241
 20
1757.099221804157
 10
1040.841022732241
 20
1772.099221804157
  0
LWPOLYLINE
  5
13A
330
1F
100
AcDbEntity
  8
0
100
AcDbPolyline
 90
        6
 70
     1
 43
0.0
 10
1027.850641675474
 20
1777.520760835074
 10
1016.660260618708
 20
1771.059991319615
 10
1016.660260618708
 20
1758.138452288698
 10
1027.850641675474
 20
1751.677682773239
 10
1039.041022732241
 20
1758.138452288698
 10
1039.041022732241
 20
1771.059991319615
  0
LWPOLYLINE
  5
142
330
1F
100
AcDbEntity
  8
0
100
AcDbPolyline
 90
        6
 70
     1
 43
0.0
 10
1057.850641675474
 20
1779.599221804157
 10
1044.860260618708
 20
1772.099221804157
 10
1044.860260618708
 20
1757.099221804157
 10
1057.850641675474
 20
1749.599221804157
 10
1070.841022732241
 20
1757.099221804157
 10
1070.841022732241
 20
1772.099221804157
  0
LINE
  5
146
102
{ACAD_REACTORS
330
18E
102
}
330
1F
100
AcDbEntity
  8
0
  6
DASHED2
 48
0.2
100
AcDbLine
 10
1042.850641675474
 20
1779.599221804157
 30
0.0
 11
1042.850641675474
 21
1749.599221804157
 31
0.0
  0
LWPOLYLINE
  5
14E
330
1F
100
AcDbEntity
  8
0
  6
DASHED2
 48
0.2
100
AcDbPolyline
 90
        6
 70
     1
 43
0.0
 10
1027.850641675474
 20
1775.442299865991
 10
1018.460260618708
 20
1770.020760835074
 10
1018.460260618708
 20
1759.177682773239
 10
1027.850641675474
 20
1753.756143742322
 10
1037.241022732241
 20
1759.177682773239
 10
1037.241022732241
 20
1770.020760835074
  0
LINE
  5
14F
102
{ACAD_REACTORS
330
31D
102
}
330
1F
100
AcDbEntity
  8
0
100
AcDbLine
 10
1027.850641675474
 20
1779.599221804157
 30
0.0
 11
1027.850641675474
 21
1777.520760835074
 31
0.0
  0
LINE
  5
150
330
1F
100
AcDbEntity
  8
0
100
AcDbLine
 10
1014.860260618708
 20
1772.099221804157
 30
0.0
 11
1016.660260618708
 21
1771.059991319615
 31
0.0
  0
DIMENSION
  5
156
330
1F
100
AcDbEntity
  8
0
 62
   255
100
AcDbDimension
  2
*D1
 10
1023.033320656725
 20
1787.943066564998
 30
0.0
 11
1015.600630128342
 21
1785.816864197094
 31
0.0
 70
    33
 71
     5
 42
14.99999999999977
  3
ISO-25
100
AcDbAlignedDimension
 13
1014.860260618708
 23
1772.099221804157
 33
0.0
 14
1027.850641675474
 24
1779.599221804157
 34
0.0
  0
DIMENSION
  5
177
102
{ACAD_XDICTIONARY
360
184
102
}
102
{ACAD_REACTORS
330
18E
102
}
330
1F
100
AcDbEntity
  8
0
 62
   255
100
AcDbDimension
  2
*D2
 10
1042.850641675474
 20
1743.585070146047
 30
0.0
 11
1027.850641675474
 21
1745.460070146047
 31
0.0
 70
    32
 71
     5
 42
30.0
  3
ISO-25
100
AcDbAlignedDimension
 13
1012.850641675474
 23
1749.599221804157
 33
0.0
 14
1042.850641675474
 24
1749.599221804157
 34
0.0
100
AcDbRotatedDimension
  0
LINE
  5
198
102
{ACAD_REACTORS
330
1B1
102
}
330
1F
100
AcDbEntity
  8
0
100
AcDbLine
 10
1016.660260618708
 20
1758.138452288698
 30
0.0
 11
1018.460260618708
 21
1759.177682773239
 31
0.0
  0
LINE
  5
199
102
{ACAD_REACTORS
330
1B1
102
}
330
1F
100
AcDbEntity
  8
0
100
AcDbLine
 10
1027.850641675474
 20
1751.677682773239
 30
0.0
 11
1027.850641675474
 21
1753.756143742322
 31
0.0
  0
DIMENSION
  5
19A
102
{ACAD_XDICTIONARY
360
1A7
102
}
102
{ACAD_REACTORS
330
1B1
102
}
330
1F
100
AcDbEntity
  8
0
 62
   255
100
AcDbDimension
  2
*D3
 10
1029.686811224789
 20
1756.936482693046
 30
0.0
 11
1026.033287363073
 21
1761.451471799722
 31
0.0
 70
    33
 71
     5
 42
10.8430780618346
  3
ISO-25
100
AcDbAlignedDimension
 13
1018.460260618708
 23
1759.177682773239
 33
0.0
 14
1027.850641675474
 24
1753.756143742322
 34
0.0
  0
LWPOLYLINE
  5
1E7
102
{ACAD_REACTORS
330
221
330
23F
102
}
330
1F
100
AcDbEntity
  8
0
100
AcDbPolyline
 90
        5
 70
     0
 43
0.0
 10
1098.744555145263
 20
1759.938452288698
 10
1097.705324660722
 20
1758.138452288698
 10
1110.626863691639
 20
1758.138452288698
 10
1109.587633207098
 20
1759.938452288698
 10
1098.744555145263
 20
1759.938452288698
  0
LINE
  5
1E8
102
{ACAD_REACTORS
330
203
330
23F
102
}
330
1F
100
AcDbEntity
  8
0
100
AcDbLine
 10
1110.626863691639
 20
1758.138452288698
 30
0.0
 11
1097.705324660722
 21
1758.138452288698
 31
0.0
  0
LINE
  5
1E9
102
{ACAD_REACTORS
330
203
330
221
102
}
330
1F
100
AcDbEntity
  8
0
100
AcDbLine
 10
1097.705324660722
 20
1758.138452288698
 30
0.0
 11
1097.705324660722
 21
1774.205195954378
 31
0.0
  0
DIMENSION
  5
1EA
102
{ACAD_XDICTIONARY
360
1F8
102
}
102
{ACAD_REACTORS
330
203
102
}
330
1F
100
AcDbEntity
  8
0
 62
   255
100
AcDbDimension
  2
*D4
 10
1097.705324660722
 20
1758.138452288698
 30
0.0
 11
1109.908501978348
 21
1770.341629606324
 31
0.0
 70
    34
 71
     5
 42
1.5707963267949
  3
ISO-25
100
AcDb2LineAngularDimension
 13
1097.705324660722
 23
1758.138452288698
 33
0.0
 14
1097.705324660722
 24
1774.205195954378
 34
0.0
 15
1110.626863691639
 25
1758.138452288698
 35
0.0
 16
1111.027305863071
 26
1765.829901722013
 36
0.0
  0
DIMENSION
  5
204
102
{ACAD_XDICTIONARY
360
214
102
}
102
{ACAD_REACTORS
330
221
102
}
330
1F
100
AcDbEntity
  8
0
 62
   255
100
AcDbDimension
  2
*D5
 10
1097.705324660722
 20
1774.205195954378
 30
0.0
 11
1108.675700988494
 21
1764.812083575356
 31
0.0
 70
    34
 71
     5
 42
0.5235987755983738
  3
ISO-25
100
AcDb2LineAngularDimension
 13
1098.744555145263
 23
1759.938452288698
 33
0.0
 14
1097.705324660722
 24
1758.138452288698
 34
0.0
 15
1097.705324660722
 25
1758.138452288698
 35
0.0
 16
1099.533079559368
 26
1768.504165416109
 36
0.0
  0
DIMENSION
  5
222
102
{ACAD_XDICTIONARY
360
232
102
}
102
{ACAD_REACTORS
330
23F
102
}
330
1F
100
AcDbEntity
  8
0
 62
   255
100
AcDbDimension
  2
*D6
 10
1097.705324660722
 20
1758.138452288698
 30
0.0
 11
1105.253356995518
 21
1762.496310789044
 31
0.0
 70
    34
 71
     5
 42
1.047197551196454
  3
ISO-25
100
AcDb2LineAngularDimension
 13
1110.626863691639
 23
1758.138452288698
 33
0.0
 14
1097.705324660722
 24
1758.138452288698
 34
0.0
 15
1098.744555145263
 25
1759.938452288698
 35
0.0
 16
1104.133495947158
 26
1760.478115297725
 36
0.0
  0
LINE
  5
262
102
{ACAD_REACTORS
330
2CE
102
}
330
1F
100
AcDbEntity
  8
0
  6
ACAD_ISO02W100
 48
0.2
100
AcDbLine
 10
1012.8846944119
 20
1716.681324692164
 30
0.0
 11
1132.884694411901
 21
1716.681324692164
 31
0.0
  0
LINE
  5
296
102
{ACAD_REACTORS
330
2CE
102
}
330
1F
100
AcDbEntity
  8
0
  6
ACAD_ISO02W100
 48
0.2
100
AcDbLine
 10
1012.982324498378
 20
1721.68610192001
 30
0.0
 11
1132.982324498378
 21
1721.68610192001
 31
0.0
  0
DIMENSION
  5
2B3
102
{ACAD_XDICTIONARY
360
2C2
102
}
102
{ACAD_REACTORS
330
2CE
102
}
330
1F
100
AcDbEntity
  8
0
 62
   255
100
AcDbDimension
  2
*D8
 10
1006.105756698952
 20
1721.68610192001
 30
0.0
 11
1004.230756698952
 21
1719.183713306087
 31
0.0
 70
    32
 71
     5
 42
5.004777227845806
  3
ISO-25
100
AcDbAlignedDimension
 13
1012.8846944119
 23
1716.681324692164
 33
0.0
 14
1012.982324498378
 24
1721.68610192001
 34
0.0
 50
90.0
100
AcDbRotatedDimension
  0
DIMENSION
  5
2CF
102
{ACAD_XDICTIONARY
360
2DC
102
}
102
{ACAD_REACTORS
330
2E6
102
}
330
1F
100
AcDbEntity
  8
0
 62
   255
100
AcDbDimension
  2
*D9
 10
1027.982324498378
 20
1702.833094135497
 30
0.0
 11
1020.482324498378
 21
1704.708094135497
 31
0.0
 70
    32
 71
     5
 42
15.0
  3
ISO-25
100
AcDbAlignedDimension
 13
1012.982324498378
 23
1709.686101920009
 33
0.0
 14
1027.982324498378
 24
1709.686101920009
 34
0.0
100
AcDbRotatedDimension
  0
DIMENSION
  5
306
102
{ACAD_XDICTIONARY
360
313
102
}
102
{ACAD_REACTORS
330
31D
102
}
330
1F
100
AcDbEntity
  8
0
 62
   255
100
AcDbDimension
  2
*D10
 10
1033.630806427248
 20
1779.599221804157
 30
0.0
 11
1031.755806427247
 21
1772.099221804157
 31
0.0
 70
    33
 71
     5
 42
15.0
  3
ISO-25
100
AcDbAlignedDimension
 13
1027.850641675474
 23
1764.599221804157
 33
0.0
 14
1027.850641675474
 24
1779.599221804157
 34
0.0
  0
LINE
  5
35B
330
1F
100
AcDbEntity
  8
0
  6
ACAD_ISO02W100
100
AcDbLine
 10
1027.982324498378
 20
1709.686101920009
 30
0.0
 11
1027.982324498378
 21
1716.681324692164
 31
0.0
  0
LINE
  5
361
330
1F
100
AcDbEntity
  8
0
  6
ACAD_ISO02W100
100
AcDbLine
 10
1042.982324498378
 20
1709.686101920009
 30
0.0
 11
1042.982324498378
 21
1716.681324692164
 31
0.0
  0
LINE
  5
362
330
1F
100
AcDbEntity
  8
0
  6
ACAD_ISO02W100
100
AcDbLine
 10
1057.982324498378
 20
1716.681324692164
 30
0.0
 11
1057.982324498378
 21
1709.686101920009
 31
0.0
  0
LINE
  5
364
330
1F
100
AcDbEntity
  8
0
  6
ACAD_ISO02W100
100
AcDbLine
 10
1087.982324498378
 20
1716.681324692164
 30
0.0
 11
1087.982324498378
 21
1709.686101920009
 31
0.0
  0
LINE
  5
365
330
1F
100
AcDbEntity
  8
0
  6
ACAD_ISO02W100
100
AcDbLine
 10
1102.982324498378
 20
1709.686101920009
 30
0.0
 11
1102.982324498378
 21
1716.681324692164
 31
0.0
  0
LINE
  5
366
330
1F
100
AcDbEntity
  8
0
  6
ACAD_ISO02W100
100
AcDbLine
 10
1072.982324498378
 20
1709.686101920009
 30
0.0
 11
1072.884694411901
 21
1716.681324692164
 31
0.0
  0
DIMENSION
  5
38C
330
1F
100
AcDbEntity
  8
0
 62
   255
100
AcDbDimension
  2
*D12
 10
1001.079104870031
 20
1716.681324692164
 30
0.0
 11
1001.079104870031
 21
1712.931324692164
 31
0.0
 70
   160
 71
     5
 42
6.995222772154193
  3
ISO-25
100
AcDbAlignedDimension
 13
1012.982324498378
 23
1709.686101920009
 33
0.0
 14
1012.8846944119
 24
1716.681324692164
 34
0.0
 50
90.0
100
AcDbRotatedDimension
  0
MTEXT
  5
3DE
330
1F
100
AcDbEntity
  8
0
100
AcDbMText
 10
1108.60773388525
 20
1707.436282255916
 30
0.0
 40
2.5
 41
28.83991620575807
 71
     1
 72
     5
  1
{\fComic Sans MS|b0|i0|c238|p66;www.Maclab.sk}
 73
     1
 44
1.0
  0
ENDSEC
  0
SECTION
  2
OBJECTS
  0
DICTIONARY
  5
C
330
0
100
AcDbDictionary
281
     1
  3
ACAD_COLOR
350
6B
  3
ACAD_GROUP
350
D
  3
ACAD_LAYOUT
350
1A
  3
ACAD_MATERIAL
350
6A
  3
ACAD_MLINESTYLE
350
17
  3
ACAD_PLOTSETTINGS
350
19
  3
ACAD_PLOTSTYLENAME
350
E
  3
ACAD_TABLESTYLE
350
7E
  3
ACAD_VISUALSTYLE
350
EF
  3
AcDbVariableDictionary
350
5E
  0
DICTIONARY
  5
184
330
177
100
AcDbDictionary
280
     1
281
     1
  3
ACAD_DIMASSOC
360
18E
  0
DICTIONARY
  5
1A7
330
19A
100
AcDbDictionary
280
     1
281
     1
  3
ACAD_DIMASSOC
360
1B1
  0
DICTIONARY
  5
1F8
330
1EA
100
AcDbDictionary
280
     1
281
     1
  3
ACAD_DIMASSOC
360
203
  0
DICTIONARY
  5
214
330
204
100
AcDbDictionary
280
     1
281
     1
  3
ACAD_DIMASSOC
360
221
  0
DICTIONARY
  5
232
330
222
100
AcDbDictionary
280
     1
281
     1
  3
ACAD_DIMASSOC
360
23F
  0
DICTIONARY
  5
2C2
330
2B3
100
AcDbDictionary
280
     1
281
     1
  3
ACAD_DIMASSOC
360
2CE
  0
DICTIONARY
  5
2DC
330
2CF
100
AcDbDictionary
280
     1
281
     1
  3
ACAD_DIMASSOC
360
2E6
  0
DICTIONARY
  5
313
330
306
100
AcDbDictionary
280
     1
281
     1
  3
ACAD_DIMASSOC
360
31D
  0
DICTIONARY
  5
6B
102
{ACAD_REACTORS
330
C
102
}
330
C
100
AcDbDictionary
281
     1
  0
DICTIONARY
  5
D
102
{ACAD_REACTORS
330
C
102
}
330
C
100
AcDbDictionary
281
     1
  0
DICTIONARY
  5
1A
102
{ACAD_REACTORS
330
C
102
}
330
C
100
AcDbDictionary
281
     1
  3
Layout1
350
D3
  3
Layout2
350
D7
  3
Model
350
22
  0
DICTIONARY
  5
6A
102
{ACAD_REACTORS
330
C
102
}
330
C
100
AcDbDictionary
281
     1
  3
ByBlock
350
ED
  3
ByLayer
350
EC
  3
Global
350
EE
  0
DICTIONARY
  5
17
102
{ACAD_REACTORS
330
C
102
}
330
C
100
AcDbDictionary
281
     1
  3
Standard
350
18
  0
DICTIONARY
  5
19
102
{ACAD_REACTORS
330
C
102
}
330
C
100
AcDbDictionary
281
     1
  0
ACDBDICTIONARYWDFLT
  5
E
102
{ACAD_REACTORS
330
C
102
}
330
C
100
AcDbDictionary
281
     1
  3
Normal
350
F
100
AcDbDictionaryWithDefault
340
F
  0
DICTIONARY
  5
7E
102
{ACAD_REACTORS
330
C
102
}
330
C
100
AcDbDictionary
281
     1
  3
Standard
350
7F
  0
DICTIONARY
  5
EF
102
{ACAD_REACTORS
330
C
102
}
330
C
100
AcDbDictionary
281
     1
  3
2dWireframe
350
F5
  3
3D Hidden
350
F7
  3
3dWireframe
350
F6
  3
Basic
350
F4
  3
Brighten
350
FB
  3
ColorChange
350
FF
  3
Conceptual
350
F8
  3
Dim
350
FA
  3
Facepattern
350
FE
  3
Flat
350
F0
  3
FlatWithEdges
350
F1
  3
Gouraud
350
F2
  3
GouraudWithEdges
350
F3
  3
Linepattern
350
FD
  3
Realistic
350
F9
  3
Thicken
350
FC
  0
DICTIONARY
  5
5E
102
{ACAD_REACTORS
330
C
102
}
330
C
100
AcDbDictionary
281
     1
  3
CTABLESTYLE
350
84
  3
DIMASSOC
350
5F
  3
HIDETEXT
350
63
  3
PSOLHEIGHT
350
3E7
  3
PSOLWIDTH
350
3E6
  0
DIMASSOC
  5
18E
102
{ACAD_REACTORS
330
184
102
}
330
184
100
AcDbDimAssoc
330
177
 90
        3
 70
     0
 71
     0
  1
AcDbOsnapPointRef
 72
    13
331
12C
 73
     2
 91
        1
 40
0.0
 10
0.0
 20
0.0
 30
2.000000000000000E+50
 75
     0
  1
AcDbOsnapPointRef
 72
     1
331
146
 73
     2
 91
        0
 40
1.0
 10
0.0
 20
0.0
 30
2.000000000000000E+50
 75
     0
  0
DIMASSOC
  5
1B1
102
{ACAD_REACTORS
330
1A7
102
}
330
1A7
100
AcDbDimAssoc
330
19A
 90
        3
 70
     0
 71
     0
  1
AcDbOsnapPointRef
 72
     1
331
198
 73
     2
 91
        0
 40
1.0
 10
0.0
 20
0.0
 30
2.000000000000000E+50
 75
     0
  1
AcDbOsnapPointRef
 72
     1
331
199
 73
     2
 91
        0
 40
1.0
 10
0.0
 20
0.0
 30
2.000000000000000E+50
 75
     0
  0
DIMASSOC
  5
203
102
{ACAD_REACTORS
330
1F8
102
}
330
1F8
100
AcDbDimAssoc
330
1EA
 90
       15
 70
     0
 71
     0
  1
AcDbOsnapPointRef
 72
    13
331
1E9
 73
     2
 91
        0
 40
0.0
 10
0.0
 20
0.0
 30
2.000000000000000E+50
 75
     0
  1
AcDbOsnapPointRef
 72
     1
331
1E9
 73
     2
 91
        0
 40
1.0
 10
0.0
 20
0.0
 30
2.000000000000000E+50
 75
     0
  1
AcDbOsnapPointRef
 72
    13
331
1E8
 73
     2
 91
        0
 40
0.0
 10
0.0
 20
0.0
 30
2.000000000000000E+50
 75
     0
  1
AcDbOsnapPointRef
 72
     1
331
1E8
 73
     2
 91
        0
 40
1.0
 10
0.0
 20
0.0
 30
2.000000000000000E+50
 75
     0
  0
DIMASSOC
  5
221
102
{ACAD_REACTORS
330
214
102
}
330
214
100
AcDbDimAssoc
330
204
 90
       15
 70
     0
 71
     0
  1
AcDbOsnapPointRef
 72
    13
331
1E7
 73
     2
 91
        1
 40
0.0
 10
0.0
 20
0.0
 30
2.000000000000000E+50
 75
     0
  1
AcDbOsnapPointRef
 72
     1
331
1E7
 73
     2
 91
        1
 40
0.9999999999999998
 10
0.0
 20
0.0
 30
2.000000000000000E+50
 75
     0
  1
AcDbOsnapPointRef
 72
    13
331
1E9
 73
     2
 91
        0
 40
0.0
 10
0.0
 20
0.0
 30
2.000000000000000E+50
 75
     0
  1
AcDbOsnapPointRef
 72
     1
331
1E9
 73
     2
 91
        0
 40
1.0
 10
0.0
 20
0.0
 30
2.000000000000000E+50
 75
     0
  0
DIMASSOC
  5
23F
102
{ACAD_REACTORS
330
232
102
}
330
232
100
AcDbDimAssoc
330
222
 90
       15
 70
     0
 71
     0
  1
AcDbOsnapPointRef
 72
    13
331
1E8
 73
     2
 91
        0
 40
0.0
 10
0.0
 20
0.0
 30
2.000000000000000E+50
 75
     0
  1
AcDbOsnapPointRef
 72
     1
331
1E8
 73
     2
 91
        0
 40
1.0
 10
0.0
 20
0.0
 30
2.000000000000000E+50
 75
     0
  1
AcDbOsnapPointRef
 72
    13
331
1E7
 73
     2
 91
        1
 40
0.0
 10
0.0
 20
0.0
 30
2.000000000000000E+50
 75
     0
  1
AcDbOsnapPointRef
 72
     1
331
1E7
 73
     2
 91
        1
 40
0.9999999999999998
 10
0.0
 20
0.0
 30
2.000000000000000E+50
 75
     0
  0
DIMASSOC
  5
2CE
102
{ACAD_REACTORS
330
2C2
102
}
330
2C2
100
AcDbDimAssoc
330
2B3
 90
        3
 70
     0
 71
     0
  1
AcDbOsnapPointRef
 72
    13
331
262
 73
     2
 91
        0
 40
0.0
 10
0.0
 20
0.0
 30
2.000000000000000E+50
 75
     0
  1
AcDbOsnapPointRef
 72
    13
331
296
 73
     2
 91
        0
 40
0.0
 10
0.0
 20
0.0
 30
2.000000000000000E+50
 75
     0
  0
DIMASSOC
  5
2E6
102
{ACAD_REACTORS
330
2DC
102
}
330
2DC
100
AcDbDimAssoc
330
2CF
 90
        1
 70
     0
 71
     0
  1
AcDbOsnapPointRef
 72
    13
331
12B
 73
     2
 91
        1
 40
0.0
 10
0.0
 20
0.0
 30
2.000000000000000E+50
 75
     0
  0
DIMASSOC
  5
31D
102
{ACAD_REACTORS
330
313
102
}
330
313
100
AcDbDimAssoc
330
306
 90
        2
 70
     0
 71
     0
  1
AcDbOsnapPointRef
 72
    13
331
14F
 73
     2
 91
        0
 40
0.0
 10
0.0
 20
0.0
 30
2.000000000000000E+50
 75
     0
  0
LAYOUT
  5
D3
102
{ACAD_REACTORS
330
1A
102
}
330
1A
100
AcDbPlotSettings
  1

  2
C:\Documents and Settings\basas\Application Data\Autodesk\AutoCAD 2005\R16.1\enu\plotters\Default Windows System Printer.pc3
  4

  6

 40
0.0
 41
0.0
 42
0.0
 43
0.0
 44
0.0
 45
0.0
 46
0.0
 47
0.0
 48
0.0
 49
0.0
140
0.0
141
0.0
142
1.0
143
1.0
 70
   688
 72
     0
 73
     0
 74
     5
  7

 75
    16
147
1.0
 76
     0
 77
     2
 78
   300
148
0.0
149
0.0
100
AcDbLayout
  1
Layout1
 70
     1
 71
     1
 10
0.0
 20
0.0
 11
12.0
 21
9.0
 12
0.0
 22
0.0
 32
0.0
 14
0.0
 24
0.0
 34
0.0
 15
0.0
 25
0.0
 35
0.0
146
0.0
 13
0.0
 23
0.0
 33
0.0
 16
1.0
 26
0.0
 36
0.0
 17
0.0
 27
1.0
 37
0.0
 76
     0
330
D2
  0
LAYOUT
  5
D7
102
{ACAD_REACTORS
330
1A
102
}
330
1A
100
AcDbPlotSettings
  1

  2
C:\Documents and Settings\basas\Application Data\Autodesk\AutoCAD 2005\R16.1\enu\plotters\Default Windows System Printer.pc3
  4

  6

 40
0.0
 41
0.0
 42
0.0
 43
0.0
 44
0.0
 45
0.0
 46
0.0
 47
0.0
 48
0.0
 49
0.0
140
0.0
141
0.0
142
1.0
143
1.0
 70
   688
 72
     0
 73
     0
 74
     5
  7

 75
    16
147
1.0
 76
     0
 77
     2
 78
   300
148
0.0
149
0.0
100
AcDbLayout
  1
Layout2
 70
     1
 71
     2
 10
0.0
 20
0.0
 11
12.0
 21
9.0
 12
0.0
 22
0.0
 32
0.0
 14
0.0
 24
0.0
 34
0.0
 15
0.0
 25
0.0
 35
0.0
146
0.0
 13
0.0
 23
0.0
 33
0.0
 16
1.0
 26
0.0
 36
0.0
 17
0.0
 27
1.0
 37
0.0
 76
     0
330
D6
  0
LAYOUT
  5
22
102
{ACAD_REACTORS
330
1A
102
}
330
1A
100
AcDbPlotSettings
  1

  2
none_device
  4
ISO_A4_(210.00_x_297.00_MM)
  6

 40
7.5
 41
20.0
 42
7.5
 43
20.0
 44
210.0
 45
297.0
 46
11.54999923706054
 47
-13.65000009536743
 48
0.0
 49
0.0
140
0.0
141
0.0
142
1.0
143
8.704084754739808
 70
 11952
 72
     1
 73
     0
 74
     0
  7

 75
     0
147
0.1148885871608098
 76
     0
 77
     2
 78
   300
148
0.0
149
0.0
100
AcDbLayout
  1
Model
 70
     1
 71
     0
 10
0.0
 20
0.0
 11
12.0
 21
9.0
 12
0.0
 22
0.0
 32
0.0
 14
0.0
 24
0.0
 34
0.0
 15
0.0
 25
0.0
 35
0.0
146
0.0
 13
0.0
 23
0.0
 33
0.0
 16
1.0
 26
0.0
 36
0.0
 17
0.0
 27
1.0
 37
0.0
 76
     0
330
1F
331
EA
1001
ACAD_PSEXT
1000
None
1000
None
1000
Not applicable
1000
The layout will not be plotted unless a new plotter configuration name is selected.
1070
     0
  0
MATERIAL
  5
ED
102
{ACAD_XDICTIONARY
360
3EC
102
}
102
{ACAD_REACTORS
330
6A
102
}
330
6A
100
AcDbMaterial
  1
ByBlock
  0
MATERIAL
  5
EC
102
{ACAD_XDICTIONARY
360
3EA
102
}
102
{ACAD_REACTORS
330
6A
102
}
330
6A
100
AcDbMaterial
  1
ByLayer
  0
MATERIAL
  5
EE
102
{ACAD_XDICTIONARY
360
3EE
102
}
102
{ACAD_REACTORS
330
6A
102
}
330
6A
100
AcDbMaterial
  1
Global
  0
MLINESTYLE
  5
18
102
{ACAD_REACTORS
330
17
102
}
330
17
100
AcDbMlineStyle
  2
STANDARD
 70
     0
  3

 62
   256
 51
90.0
 52
90.0
 71
     2
 49
0.5
 62
   256
  6
BYLAYER
 49
-0.5
 62
   256
  6
BYLAYER
  0
ACDBPLACEHOLDER
  5
F
102
{ACAD_REACTORS
330
E
102
}
330
E
  0
TABLESTYLE
  5
7F
102
{ACAD_XDICTIONARY
360
3E8
102
}
102
{ACAD_REACTORS
330
7E
102
}
330
7E
100
AcDbTableStyle
  3
Standard
 70
     0
 71
     0
 40
1.5
 41
1.5
280
     0
281
     0
  7
Standard
140
4.5
170
     2
 62
     0
 63
     7
283
     0
274
    -2
284
     1
 64
     0
275
    -2
285
     1
 65
     0
276
    -2
286
     1
 66
     0
277
    -2
287
     1
 67
     0
278
    -2
288
     1
 68
     0
279
    -2
289
     1
 69
     0
  7
Standard
140
6.0
170
     5
 62
     0
 63
     7
283
     0
274
    -2
284
     1
 64
     0
275
    -2
285
     1
 65
     0
276
    -2
286
     1
 66
     0
277
    -2
287
     1
 67
     0
278
    -2
288
     1
 68
     0
279
    -2
289
     1
 69
     0
  7
Standard
140
4.5
170
     5
 62
     0
 63
     7
283
     0
274
    -2
284
     1
 64
     0
275
    -2
285
     1
 65
     0
276
    -2
286
     1
 66
     0
277
    -2
287
     1
 67
     0
278
    -2
288
     1
 68
     0
279
    -2
289
     1
 69
     0
  0
VISUALSTYLE
  5
F5
102
{ACAD_REACTORS
330
EF
102
}
330
EF
100
AcDbVisualStyle
  2
2dWireframe
 70
     4
 71
     0
 72
     2
 73
     1
 90
        0
 40
-0.6
 41
-30.0
 62
     5
 63
     7
421
 16777215
 74
     1
 91
        4
 64
     7
 65
   257
 75
     1
175
     1
 42
1.0
 92
        0
 66
   257
 43
1.0
 76
     1
 77
     6
 78
     2
 67
     7
 79
     5
170
     0
171
     0
290
     0
174
     0
 93
        1
 44
0.0
173
     0
291
     0
 45
0.0
1001
ACAD
1000
AcDbSavedByObjectVersion
1070
     0
  0
VISUALSTYLE
  5
F7
102
{ACAD_REACTORS
330
EF
102
}
330
EF
100
AcDbVisualStyle
  2
3D Hidden
 70
     6
 71
     1
 72
     2
 73
     2
 90
        0
 40
-0.6
 41
-30.0
 62
     5
 63
     7
421
 16777215
 74
     2
 91
        2
 64
     7
 65
   257
 75
     2
175
     1
 42
40.0
 92
        0
 66
   257
 43
1.0
 76
     1
 77
     6
 78
     2
 67
     7
 79
     3
170
     0
171
     0
290
     0
174
     0
 93
        1
 44
0.0
173
     0
291
     0
 45
0.0
1001
ACAD
1000
AcDbSavedByObjectVersion
1070
     0
  0
VISUALSTYLE
  5
F6
102
{ACAD_REACTORS
330
EF
102
}
330
EF
100
AcDbVisualStyle
  2
3dWireframe
 70
     5
 71
     0
 72
     2
 73
     1
 90
        0
 40
-0.6
 41
-30.0
 62
     5
 63
     7
421
 16777215
 74
     1
 91
        4
 64
     7
 65
   257
 75
     1
175
     1
 42
1.0
 92
        0
 66
   257
 43
1.0
 76
     1
 77
     6
 78
     2
 67
     7
 79
     5
170
     0
171
     0
290
     0
174
     0
 93
        1
 44
0.0
173
     0
291
     0
 45
0.0
1001
ACAD
1000
AcDbSavedByObjectVersion
1070
     0
  0
VISUALSTYLE
  5
F4
102
{ACAD_REACTORS
330
EF
102
}
330
EF
100
AcDbVisualStyle
  2
Basic
 70
     7
 71
     1
 72
     0
 73
     1
 90
        0
 40
-0.6
 41
-30.0
 62
     5
 63
     7
421
 16777215
 74
     0
 91
        4
 64
     7
 65
   257
 75
     1
175
     1
 42
1.0
 92
        8
 66
     7
 43
1.0
 76
     1
 77
     6
 78
     2
 67
     7
 79
     5
170
     0
171
     0
290
     0
174
     0
 93
        1
 44
0.0
173
     0
291
     1
 45
0.0
1001
ACAD
1000
AcDbSavedByObjectVersion
1070
     0
  0
VISUALSTYLE
  5
FB
102
{ACAD_REACTORS
330
EF
102
}
330
EF
100
AcDbVisualStyle
  2
Brighten
 70
    12
 71
     2
 72
     2
 73
     1
 90
        0
 40
-0.6
 41
-30.0
 62
     5
 63
     7
421
 16777215
 74
     1
 91
        4
 64
     7
 65
   257
 75
     1
175
     1
 42
1.0
 92
        8
 66
     7
 43
1.0
 76
     1
 77
     6
 78
     2
 67
     7
 79
     5
170
     0
171
     0
290
     0
174
     0
 93
        1
 44
50.0
173
     0
291
     1
 45
0.0
1001
ACAD
1000
AcDbSavedByObjectVersion
1070
     0
  0
VISUALSTYLE
  5
FF
102
{ACAD_REACTORS
330
EF
102
}
330
EF
100
AcDbVisualStyle
  2
ColorChange
 70
    16
 71
     2
 72
     2
 73
     3
 90
        0
 40
-0.6
 41
-30.0
 62
     5
 63
     8
421
  8421504
 74
     1
 91
        4
 64
     7
 65
   257
 75
     1
175
     1
 42
1.0
 92
        8
 66
     8
424
  8421504
 43
1.0
 76
     1
 77
     6
 78
     2
 67
     7
 79
     5
170
     0
171
     0
290
     0
174
     0
 93
        1
 44
0.0
173
     0
291
     1
 45
0.0
1001
ACAD
1000
AcDbSavedByObjectVersion
1070
     0
  0
VISUALSTYLE
  5
F8
102
{ACAD_REACTORS
330
EF
102
}
330
EF
100
AcDbVisualStyle
  2
Conceptual
 70
     9
 71
     3
 72
     2
 73
     1
 90
        0
 40
-0.6
 41
-30.0
 62
     5
 63
     7
421
 16777215
 74
     2
 91
        2
 64
     7
 65
   257
 75
     1
175
     1
 42
40.0
 92
        8
 66
     7
 43
1.0
 76
     1
 77
     6
 78
     2
 67
     7
 79
     3
170
     0
171
     0
290
     0
174
     0
 93
        1
 44
0.0
173
     0
291
     0
 45
0.0
1001
ACAD
1000
AcDbSavedByObjectVersion
1070
     0
  0
VISUALSTYLE
  5
FA
102
{ACAD_REACTORS
330
EF
102
}
330
EF
100
AcDbVisualStyle
  2
Dim
 70
    11
 71
     2
 72
     2
 73
     1
 90
        0
 40
-0.6
 41
-30.0
 62
     5
 63
     7
421
 16777215
 74
     1
 91
        4
 64
     7
 65
   257
 75
     1
175
     1
 42
1.0
 92
        8
 66
     7
 43
1.0
 76
     1
 77
     6
 78
     2
 67
     7
 79
     5
170
     0
171
     0
290
     0
174
     0
 93
        1
 44
-50.0
173
     0
291
     1
 45
0.0
1001
ACAD
1000
AcDbSavedByObjectVersion
1070
     0
  0
VISUALSTYLE
  5
FE
102
{ACAD_REACTORS
330
EF
102
}
330
EF
100
AcDbVisualStyle
  2
Facepattern
 70
    15
 71
     2
 72
     2
 73
     1
 90
        0
 40
-0.6
 41
-30.0
 62
     5
 63
     7
421
 16777215
 74
     1
 91
        4
 64
     7
 65
   257
 75
     1
175
     1
 42
1.0
 92
        8
 66
     7
 43
1.0
 76
     1
 77
     6
 78
     2
 67
     7
 79
     5
170
     0
171
     0
290
     0
174
     0
 93
        1
 44
0.0
173
     0
291
     1
 45
0.0
1001
ACAD
1000
AcDbSavedByObjectVersion
1070
     0
  0
VISUALSTYLE
  5
F0
102
{ACAD_REACTORS
330
EF
102
}
330
EF
100
AcDbVisualStyle
  2
Flat
 70
     0
 71
     2
 72
     1
 73
     1
 90
        2
 40
-0.6
 41
30.0
 62
     5
 63
     7
421
 16777215
 74
     0
 91
        4
 64
     7
 65
   257
 75
     1
175
     1
 42
1.0
 92
        8
 66
     7
 43
1.0
 76
     1
 77
     6
 78
     2
 67
     7
 79
     5
170
     0
171
     0
290
     0
174
     0
 93
        1
 44
0.0
173
     0
291
     1
 45
0.0
1001
ACAD
1000
AcDbSavedByObjectVersion
1070
     0
  0
VISUALSTYLE
  5
F1
102
{ACAD_REACTORS
330
EF
102
}
330
EF
100
AcDbVisualStyle
  2
FlatWithEdges
 70
     1
 71
     2
 72
     1
 73
     1
 90
        2
 40
-0.6
 41
30.0
 62
     5
 63
     7
421
 16777215
 74
     1
 91
        4
 64
     7
 65
   257
 75
     1
175
     1
 42
1.0
 92
        0
 66
   257
 43
1.0
 76
     1
 77
     6
 78
     2
 67
     7
 79
     5
170
     0
171
     0
290
     0
174
     0
 93
        1
 44
0.0
173
     0
291
     1
 45
0.0
1001
ACAD
1000
AcDbSavedByObjectVersion
1070
     0
  0
VISUALSTYLE
  5
F2
102
{ACAD_REACTORS
330
EF
102
}
330
EF
100
AcDbVisualStyle
  2
Gouraud
 70
     2
 71
     2
 72
     2
 73
     1
 90
        2
 40
-0.6
 41
30.0
 62
     5
 63
     7
421
 16777215
 74
     0
 91
        4
 64
     7
 65
   257
 75
     1
175
     1
 42
1.0
 92
        0
 66
     7
 43
1.0
 76
     1
 77
     6
 78
     2
 67
     7
 79
     5
170
     0
171
     0
290
     0
174
     0
 93
        1
 44
0.0
173
     0
291
     1
 45
0.0
1001
ACAD
1000
AcDbSavedByObjectVersion
1070
     0
  0
VISUALSTYLE
  5
F3
102
{ACAD_REACTORS
330
EF
102
}
330
EF
100
AcDbVisualStyle
  2
GouraudWithEdges
 70
     3
 71
     2
 72
     2
 73
     1
 90
        2
 40
-0.6
 41
30.0
 62
     5
 63
     7
421
 16777215
 74
     1
 91
        4
 64
     7
 65
   257
 75
     1
175
     1
 42
1.0
 92
        0
 66
   257
 43
1.0
 76
     1
 77
     6
 78
     2
 67
     7
 79
     5
170
     0
171
     0
290
     0
174
     0
 93
        1
 44
0.0
173
     0
291
     1
 45
0.0
1001
ACAD
1000
AcDbSavedByObjectVersion
1070
     0
  0
VISUALSTYLE
  5
FD
102
{ACAD_REACTORS
330
EF
102
}
330
EF
100
AcDbVisualStyle
  2
Linepattern
 70
    14
 71
     2
 72
     2
 73
     1
 90
        0
 40
-0.6
 41
-30.0
 62
     5
 63
     7
421
 16777215
 74
     1
 91
        4
 64
     7
 65
   257
 75
     7
175
     7
 42
1.0
 92
        8
 66
     7
 43
1.0
 76
     1
 77
     6
 78
     2
 67
     7
 79
     5
170
     0
171
     0
290
     0
174
     0
 93
        1
 44
0.0
173
     0
291
     1
 45
0.0
1001
ACAD
1000
AcDbSavedByObjectVersion
1070
     0
  0
VISUALSTYLE
  5
F9
102
{ACAD_REACTORS
330
EF
102
}
330
EF
100
AcDbVisualStyle
  2
Realistic
 70
     8
 71
     2
 72
     2
 73
     1
 90
        0
 40
-0.6
 41
-30.0
 62
     5
 63
     7
421
 16777215
 74
     1
 91
        0
 64
     7
 65
   257
 75
     1
175
     1
 42
1.0
 92
        8
 66
     8
424
  7895160
 43
1.0
 76
     1
 77
     6
 78
     2
 67
     7
 79
     5
170
     0
171
     0
290
     0
174
     0
 93
       13
 44
0.0
173
     0
291
     0
 45
0.0
1001
ACAD
1000
AcDbSavedByObjectVersion
1070
     0
  0
VISUALSTYLE
  5
FC
102
{ACAD_REACTORS
330
EF
102
}
330
EF
100
AcDbVisualStyle
  2
Thicken
 70
    13
 71
     2
 72
     2
 73
     1
 90
        0
 40
-0.6
 41
-30.0
 62
     5
 63
     7
421
 16777215
 74
     1
 91
        4
 64
     7
 65
   257
 75
     1
175
     1
 42
1.0
 92
       12
 66
     7
 43
1.0
 76
     1
 77
     6
 78
     2
 67
     7
 79
     5
170
     0
171
     0
290
     0
174
     0
 93
        1
 44
0.0
173
     0
291
     1
 45
0.0
1001
ACAD
1000
AcDbSavedByObjectVersion
1070
     0
  0
DICTIONARYVAR
  5
84
102
{ACAD_REACTORS
330
5E
102
}
330
5E
100
DictionaryVariables
280
     0
  1
STANDARD
  0
DICTIONARYVAR
  5
5F
102
{ACAD_REACTORS
330
5E
102
}
330
5E
100
DictionaryVariables
280
     0
  1
2
  0
DICTIONARYVAR
  5
63
102
{ACAD_REACTORS
330
5E
102
}
330
5E
100
DictionaryVariables
280
     0
  1
1
  0
DICTIONARYVAR
  5
3E7
102
{ACAD_REACTORS
330
5E
102
}
330
5E
100
DictionaryVariables
280
     0
  1
80.000000
  0
DICTIONARYVAR
  5
3E6
102
{ACAD_REACTORS
330
5E
102
}
330
5E
100
DictionaryVariables
280
     0
  1
5.000000
  0
DICTIONARY
  5
3EC
330
ED
100
AcDbDictionary
280
     1
281
     1
  3
ACAD_XREC_ROUNDTRIP
360
3ED
  0
DICTIONARY
  5
3EA
330
EC
100
AcDbDictionary
280
     1
281
     1
  3
ACAD_XREC_ROUNDTRIP
360
3EB
  0
DICTIONARY
  5
3EE
330
EE
100
AcDbDictionary
280
     1
281
     1
  3
ACAD_XREC_ROUNDTRIP
360
3EF
  0
DICTIONARY
  5
3E8
330
7F
100
AcDbDictionary
280
     1
281
     1
  3
ACAD_XREC_ROUNDTRIP
360
3E9
  0
XRECORD
  5
3ED
102
{ACAD_REACTORS
330
3EC
102
}
330
3EC
100
AcDbXrecord
280
     1
102
MATERIAL
148
0.0
149
0.0
149
0.0
 93
        0
 94
       63
282
     0
 72
     1
 77
     1
171
     1
175
     1
179
     1
273
     0
  0
XRECORD
  5
3EB
102
{ACAD_REACTORS
330
3EA
102
}
330
3EA
100
AcDbXrecord
280
     1
102
MATERIAL
148
0.0
149
0.0
149
0.0
 93
        0
 94
       63
282
     0
 72
     1
 77
     1
171
     1
175
     1
179
     1
273
     0
  0
XRECORD
  5
3EF
102
{ACAD_REACTORS
330
3EE
102
}
330
3EE
100
AcDbXrecord
280
     1
102
MATERIAL
148
0.0
149
0.0
149
0.0
 93
        0
 94
       63
282
     0
 72
     1
 77
     1
171
     1
175
     1
179
     1
273
     0
  0
XRECORD
  5
3E9
102
{ACAD_REACTORS
330
3E8
102
}
330
3E8
100
AcDbXrecord
280
     1
102
ACAD_ROUNDTRIP_PRE2007_TABLESTYLE
 90
      512
 91
        0
  1

 92
      512
 93
        0
  2

 94
      512
 95
        0
  3

  0
ENDSEC
  0
EOF
